Cuộc phiêu lưu đại dương. Vương quốc xanh

Returning Series 1 Seasons - 9 Episodes
Giới thiệu: Cuộc phiêu lưu đại dương. Vương quốc xanh
The Blue Realm là một bộ phim truyền hình lịch sử tự nhiên về những sinh vật kỳ thú của biển cả. Sử dụng hình ảnh có độ phân giải cao tuyệt vời, những câu chuyện hấp dẫn và các nhà khoa học hàng đầu về biển, bộ phim đưa người xem vào những hành trình khám phá phi thường!
The Blue Realm được sản xuất bởi một nhóm các nhà làm phim và thợ lặn chuyên nghiệp, tất cả đều có niềm đam mê với biển và môi trường biển của chúng ta. Đoàn đã đi đến một số điểm dưới biển hàng đầu thế giới để ghi lại những hình ảnh ngoạn mục ở định dạng độ nét cao. Các địa điểm quay phim bao gồm: Papua New Guinea, Palau (Micronesia), Nam Phi, Biển Đỏ, Great Barrier Reef, Bahamas, Đảo Cocos (Costa Rica), British Columbia, Texas, Indonesia, Quần đảo Socorro (Mexico), California và Florida.
Trân trọng cám ơn phần chia sẻ Việt Audio của bạn @cuong_7694
Ocean Odyssey-The Blue Realm
(Cuộc phiêu lưu đại dương. Vương quốc xanh – 2004 8E 1080p BDRemux AVC DD5.1 – 53.9G) Thuyết minh

THÔNG SỐ KỸ THUẬT

CÁC TRANG THAM KHẢO:
https://www.hdvietnam.com/threads/a…-2008-vie-720p-bluray-dd2-0-x264-don.1584337/
https://www.thetvdb.com/series/ocean-odyssey-the-blue-realm
https://www.imdb.com/title/tt0447676/

  • Ngày phát hành: 05/9/2004 (USA), 2013 (Canada)
  • Quốc gia: USA, Canada
  • Ngôn ngữ: Tiếng Việt, Tiếng Anh
  • Hãng phim: Sport Diver Television
  • Thể loại: Phim tài liệu
  • Thời lượng: 8 x 47:00
  • Loại phát hành: BDRemux 1080p
  • Container: MKV
  • Âm nhạc: Paul Gilman
  • Quay phim: Tom Campbell, Valerie Gill, Vince Pace, D.J. Roller, Randy Wimberg
  • Sản xuất: Erin Calmes,
  • Biên tập: Bruce Feagle, Paul Gilman, Cristian Ubilla
  • Kich bản:
  • Đạo diễn: Danny Mauro
General
Unique ID                   : 13872932998493864158365189429644888291 (0xA6FD467BB7143F8A1A8924B1E6E08E3)
Complete name               : S01E01.Shark.Business.ViE.1080i.BDRemux.AVC.DD51.mkv
Format                      : Matroska
Format version              : Version 4
File size                   : 6.82 GiB
Duration                    : 47 min 2 s
Overall bit rate mode       : Variable
Overall bit rate            : 20.7 Mb/s
Encoded date                : UTC 2021-02-28 02:33:52
Writing application         : mkvmerge v53.0.0 ('Fool's Gold') 64-bit
Writing library             : libebml v1.4.1 + libmatroska v1.6.2
Video
ID                          : 1
Format                      : AVC
Format/Info                 : Advanced Video Codec
Format profile              : [email protected]
Format settings             : CABAC / 4 Ref Frames
Format settings, CABAC      : Yes
Format settings, Reference  : 4 frames
Codec ID                    : V_MPEG4/ISO/AVC
Duration                    : 47 min 2 s
Bit rate mode               : Variable
Bit rate                    : 19.9 Mb/s
Maximum bit rate            : 24.0 Mb/s
Width                       : 1 920 pixels
Height                      : 1 080 pixels
Display aspect ratio        : 16:9
Frame rate mode             : Variable
Frame rate                  : 59.940 (60000/1001) FPS
Original frame rate         : 29.970 (30000/1001) FPS
Standard                    : NTSC
Color space                 : YUV
Chroma subsampling          : 4:2:0
Bit depth                   : 8 bits
Scan type                   : Interlaced
Scan type, store method     : Separated fields
Scan order                  : Top Field First
Bits/(Pixel*Frame)          : 0.160
Stream size                 : 6.54 GiB (96%)
Title                       : MPEG-4 AVC Video / 19.9 Mbps / 1080p / 29.970 fps / 16:9 / High Profile 4.1
Language                    : English
Default                     : Yes
Forced                      : No
Color range                 : Limited
Color primaries             : BT.709
Transfer characteristics    : BT.709
Matrix coefficients         : BT.709
Audio #1
ID                          : 2
Format                      : AC-3
Format/Info                 : Audio Coding 3
Commercial name             : Dolby Digital
Codec ID                    : A_AC3
Duration                    : 47 min 0 s
Bit rate mode               : Constant
Bit rate                    : 640 kb/s
Channel(s)                  : 6 channels
Channel layout              : L R C LFE Ls Rs
Sampling rate               : 48.0 kHz
Frame rate                  : 31.250 FPS (1536 SPF)
Compression mode            : Lossy
Stream size                 : 215 MiB (3%)
Language                    : Vietnamese
Service kind                : Complete Main
Default                     : Yes
Forced                      : No
Audio #2
ID                          : 3
Format                      : AC-3
Format/Info                 : Audio Coding 3
Commercial name             : Dolby Digital
Codec ID                    : A_AC3
Duration                    : 47 min 0 s
Bit rate mode               : Constant
Bit rate                    : 192 kb/s
Channel(s)                  : 2 channels
Channel layout              : L R
Sampling rate               : 48.0 kHz
Frame rate                  : 31.250 FPS (1536 SPF)
Compression mode            : Lossy
Stream size                 : 64.5 MiB (1%)
Title                       : eng / AC3 / 2.0 / 48 kHz / 192 kbps / 16-bit
Language                    : English
Service kind                : Complete Main
Default                     : No
Forced                      : No
1 Star2 Stars3 Stars4 Stars5 Stars (No Ratings Yet)
Loading...

Unknown 17 views

Background
Info
Cast
Background
Comments 0