Animals In Love

Les Animaux Amoureux

Animals.In.Love.2007.Bluray.1080p.x264

Complete name                  : [VT TeamSub]Animals.In.Love.2007.Bluray.1080p.x264-cuongctcclh.mkv
Format                         : Matroska
Format version                 : Version 2
File size                      : 7.14 GiB
Duration                       : 1 h 25 min
Overall bit rate mode          : Variable
Overall bit rate               : 12.0 Mb/s
Encoded date                   : UTC 2011-05-01 08:07:51
Writing application            : mkvmerge v3.3.0 ('Language') built on Mar 24 2010 14:59:24


Writing library                : libebml v0.8.0 + libmatroska v0.9.0
Video
ID                             : 1
Format                         : AVC
Format/Info                    : Advanced Video Codec
Format profile                 : [email protected]
Format settings                : CABAC / 3 Ref Frames
Format settings, CABAC         : Yes
Format settings, Reference fra : 3 frames
Codec ID                       : V_MPEG4/ISO/AVC
Duration                       : 1 h 25 min
Bit rate mode                  : Variable
Bit rate                       : 11.3 Mb/s
Maximum bit rate               : 18.0 Mb/s
Width                          : 1 920 pixels
Height                         : 1 080 pixels
Display aspect ratio           : 16:9
Frame rate mode                : Constant
Frame rate                     : 23.976 (24000/1001) FPS
Color space                    : YUV
Chroma subsampling             : 4:2:0
Bit depth                      : 8 bits
Scan type                      : Progressive
Bits/(Pixel*Frame)             : 0.228
Stream size                    : 6.62 GiB (93%)
Writing library                : x264 core 104 r1683 62997d6
Encoding settings              : cabac=1 / ref=3 / deblock=1:0:0 / analyse=0x3:0x113 / me=umh / subme=7 / psy=1 / psy_rd=1.00:0.25 / mixed_ref=1 / me_range=16 / chroma_me=1 / trellis=1 / 8x8dct=1 / cqm=0 / deadzone=21,11 / fast_pskip=1 / chroma_qp_offset=-4 / threads=6 / sliced_threads=0 / slices=4 / nr=0 / decimate=1 / interlaced=0 / constrained_intra=0 / bframes=3 / b_pyramid=1 / b_adapt=1 / b_bias=0 / direct=3 / weightb=1 / open_gop=2 / weightp=0 / keyint=24 / keyint_min=2 / scenecut=40 / intra_refresh=0 / rc_lookahead=24 / rc=2pass / mbtree=1 / bitrate=11349 / ratetol=1.0 / qcomp=0.60 / qpmin=10 / qpmax=51 / qpstep=4 / cplxblur=20.0 / qblur=0.5 / vbv_maxrate=18000 / vbv_bufsize=18000 / ip_ratio=1.40 / aq=1:1.00 / nal_hrd=vbr
Default                        : Yes
Forced                         : No
Audio
ID                             : 2
Format                         : AC-3
Format/Info                    : Audio Coding 3
Commercial name                : Dolby Digital
Codec ID                       : A_AC3
Duration                       : 1 h 25 min
Bit rate mode                  : Constant
Bit rate                       : 640 kb/s
Channel(s)                     : 6 channels
Channel layout                 : L R C LFE Ls Rs
Sampling rate                  : 48.0 kHz
Frame rate                     : 31.250 FPS (1536 SPF)
Compression mode               : Lossy
Stream size                    : 390 MiB (5%)
Title                          : cuongctcclh
Language                       : English
Service kind                   : Complete Main
Default                        : No
Forced                         : No
Text
ID                             : 3
Format                         : UTF-8
Codec ID                       : S_TEXT/UTF8
Codec ID/Info                  : UTF-8 Plain Text
Title                          : cuongctcclh
Language                       : Vietnamese
Default                        : Yes
Forced                         : No

[​IMG]

1 Star2 Stars3 Stars4 Stars5 Stars (No Ratings Yet)
Loading...

1h 22m 2007 9 views

Background
  • Ninjastream
  • Streamtape
  • Fembed
  • Short
<iframe width="560" height="315" src="https://phimkhoahoc.xyz/?trembed=1&#038;trid=4660&trtype=1" frameborder="0" allowfullscreen></iframe>
<iframe width="560" height="315" src="https://phimkhoahoc.xyz/?trembed=2&#038;trid=4660&trtype=1" frameborder="0" allowfullscreen></iframe>
<iframe width="560" height="315" src="https://phimkhoahoc.xyz/?trembed=3&#038;trid=4660&trtype=1" frameborder="0" allowfullscreen></iframe>

- Nếu Phim không Play được vui lòng nhấn F5 hoặc thông báo cho chúng tôi TẠI ĐÂY
- Nếu Phim chưa có phụ đề, hoặc bạn có phụ đề xin vui lòng đóng góp TẠI ĐÂY

Info
Cast
Background
Comments 0

Close
Please support the site
By clicking any of these buttons you help our site to get better