7 Loài Thống Lĩnh Châu Phi

Giới thiệu:
Ở Châu Phi, bất cứ điều gì cũng có thể diễn ra trong một khoảng thời gian ngắn, đặc biệt là khi bảy động vật hoang dã đẹp nhất của nó đối đầu với nhau. Đây là 7 động vật vinh quang vượt qua tất cả những loài khác. Bảy nhân vật cai quản vùng hoang dã châu Phi. Trong 24 giờ, từ ngày cho tới đêm, hoạt động không bao giờ dừng lại. Báo săn Cheetah là tay đua bất bại, có thể săn cả những con mồi nhanh nhẹn nhất. Nhưng liệu nó có thể dạy cho đàn con của mình cách đuổi theo con mồi hôm nay không? Hay linh cẩu sẽ cướp chúng?
Con sư tử không chỉ là con mèo lớn nhất châu Phi – nó còn là một cộng tác viên trong săn bắt. Và tối nay, nhóm đang đi săn. Con trâu sẽ phải rất cẩn thận. Nhưng kẻ ăn chay yên tĩnh này có thái độ vô duyên với mèo và di chuyển theo một bầy lớn… một sức mạnh để đáng được nhìn.
Africa’s Super Seven
(7 Loài Thống Lĩnh Châu Phi – 2006 1080p BDRemux 11,6G – Thuyết Minh)
[​IMG]
[​IMG]

 

[​IMG]

Tê giác cũng có năng lực đáng sợ, nhưng thị lực kém và tính khí lo lắng có nghĩa là nó là con bài hoang dã của siêu bảy. Nhưng không có gì nguy hiểm hơn một con voi hung dữ, đặc biệt là một con non có quá nhiều sức sống và không đủ nhạy cảm. Và sau đó có con báo hoa mai – chuyên lén lút bí mật. Anh ta sống trong bóng tối và luôn sẵn sàng tấn công một cách bất ngờ. Bảy siêu thú, một nơi, một ngày. Không có nơi nào tốt hơn để theo dõi những con vật này hơn ở Khu bảo tồn trò chơi Mala-Mala ở Nam Phi… một khu vực hoang dã rất rộng lớn, phong phú với động vật hoang dã.
Và thông qua tất cả chạy một tính năng hấp dẫn khác – dòng sông cát, nơi câu chuyện này bắt đầu. Đó là giữa buổi chiều và đối với động vật, đây là khởi đầu thực sự của một ngày châu Phi. Chúng đang đi ra từ nơi ẩn dật tối tăm của mình để tận dụng ánh sáng ban ngày còn lại. Ở đây bạn phải sẵn sàng cho bất cứ điều gì. Không có 2 ngày là như nhau.
Giải thưởng: Lễ hội Động vật hoang dã Châu Á 2007, Singapore, lọt vào danh sách Biên tập âm thanh hay nhất

THÔNG TIN KỸ THUẬT
  • Release Year: 2005 (imdb) 2006 (Russia), 2009
  • Country: Aquavision TV Productions
  • Studio: Blink Films for Blue Ant Media International
  • Network: Off the Fence (2019)
  • Writer: Joe Kennedy
  • Genres: Documentary
  • Quality: BDRemux
  • Format: MKV
  • Duration: 00:52:33
  • Video codec: AVC
  • Audio Codec: AC3, LPCM
  • Video: MPEG4 Video (H264) 1920×1080 24fps [V: Africas Super Seven. 2006. Blu-Ray Remux (1080p) [eng] (h264 high L4.1, yuv420p, 1920×1080) [default]]
  • Audio: Dolby AC3 48000Hz 6ch 640kbps [A: Vietnamese [vie] (ac3, 48000 Hz, 5.1, 640 kb/s) [default]]
  • Audio: PCM 48000Hz stereo 1536kbps [A: LPCM 2.0 1536 Kbps [eng] (pcm_s16le, 48000 Hz, 2 channels, s16, 1536 kb/s)]
  • Subtitle: UTF-8 [S: English [eng] (subrip)]
Mã:
General
Unique ID                      : 324795358565336673753380282229503834391 (0xF4594F891C67742828BA007CBBBC3917)
Complete name                  : Africas.Super.Seven.2006.ViE.1080p.BDRemux.AVC.PCM20.mkv
Format                         : Matroska
Format version                 : Version 4
File size                      : 11.6 GiB
Duration                       : 52 min 33 s
Overall bit rate               : 31.7 Mb/s
Encoded date                   : UTC 2020-07-02 11:36:16
Writing application            : mkvmerge v48.0.0 ('Fortress Around Your Heart') 64-bit
Writing library                : libebml v1.4.0 + libmatroska v1.6.0
Video
ID                             : 1
Format                         : AVC
Format/Info                    : Advanced Video Codec
Format profile                 : [email protected]
Format settings                : CABAC / 4 Ref Frames
Format settings, CABAC         : Yes
Format settings, Reference fra : 4 frames
Codec ID                       : V_MPEG4/ISO/AVC
Duration                       : 52 min 33 s
Bit rate mode                  : Constant
Bit rate                       : 30.0 Mb/s
Width                          : 1 920 pixels
Height                         : 1 080 pixels
Display aspect ratio           : 16:9
Frame rate mode                : Constant
Frame rate                     : 24.000 FPS
Standard                       : NTSC
Color space                    : YUV
Chroma subsampling             : 4:2:0
Bit depth                      : 8 bits
Scan type                      : Progressive
Bits/(Pixel*Frame)             : 0.603
Stream size                    : 10.8 GiB (93%)
Title                          : Africas Super Seven. 2006. Blu-Ray Remux (1080p)
Language                       : English
Default                        : Yes
Forced                         : No
Color range                    : Limited
Color primaries                : BT.709
Transfer characteristics       : BT.709
Matrix coefficients            : BT.709
Audio #1
ID                             : 2
Format                         : AC-3
Format/Info                    : Audio Coding 3
Commercial name                : Dolby Digital
Codec ID                       : A_AC3
Duration                       : 52 min 33 s
Bit rate mode                  : Constant
Bit rate                       : 640 kb/s
Channel(s)                     : 6 channels
Channel layout                 : L R C LFE Ls Rs
Sampling rate                  : 48.0 kHz
Frame rate                     : 31.250 FPS (1536 SPF)
Bit depth                      : 16 bits
Compression mode               : Lossy
Stream size                    : 241 MiB (2%)
Language                       : Vietnamese
Service kind                   : Complete Main
Default                        : Yes
Forced                         : No
Audio #2
ID                             : 3
Format                         : PCM
Format settings                : Little / Signed
Codec ID                       : A_PCM/INT/LIT
Duration                       : 52 min 33 s
Bit rate mode                  : Constant
Bit rate                       : 1 536 kb/s
Channel(s)                     : 2 channels
Sampling rate                  : 48.0 kHz
Frame rate                     : 32.000 FPS (1500 SPF)
Bit depth                      : 16 bits
Stream size                    : 577 MiB (5%)
Title                          : LPCM 2.0 1536 Kbps
Language                       : English
Default                        : No
Forced                         : No
Text
ID                             : 4
Format                         : UTF-8
Codec ID                       : S_TEXT/UTF8
Codec ID/Info                  : UTF-8 Plain Text
Duration                       : 51 min 57 s
Bit rate                       : 62 b/s
Count of elements              : 542
Stream size                    : 23.6 KiB (0%)
Language                       : English
Default                        : No
Forced                         : No
[​IMG]
[​IMG]
Một số hình ảnh trong phim
[​IMG][​IMG][​IMG][​IMG][​IMG]

Animal Planet Africas Super Seven.mkv

1 Star2 Stars3 Stars4 Stars5 Stars (No Ratings Yet)
Loading...

Unknown 6 views

Background
  • Mixdrop
  • Playhydrax
  • Embed
  • Ok
<iframe width="560" height="315" src="https://phimkhoahoc.xyz/?trembed=1&#038;trid=4516&trtype=1" frameborder="0" allowfullscreen></iframe>
<iframe width="560" height="315" src="https://phimkhoahoc.xyz/?trembed=2&#038;trid=4516&trtype=1" frameborder="0" allowfullscreen></iframe>
<iframe width="560" height="315" src="https://phimkhoahoc.xyz/?trembed=3&#038;trid=4516&trtype=1" frameborder="0" allowfullscreen></iframe>

- Nếu Phim không Play được vui lòng nhấn F5 hoặc thông báo cho chúng tôi TẠI ĐÂY
- Nếu Phim chưa có phụ đề, hoặc bạn có phụ đề xin vui lòng đóng góp TẠI ĐÂY

Comments 0

Close
Please support the site
By clicking any of these buttons you help our site to get better